请选择 进入手机版 | 继续访问电脑版

BEYOND博物馆

 找回密码
 注册

用新浪微博连接

一步搞定

QQ登录

只需一步,快速开始

搜索
热搜: 活动 交友 discuz
查看: 607|回复: 24

[资源下载] 【大时代】【全40集/单集约490M/720P源码/DVD版】【国/粤语 简/繁/英字幕】 [复制链接]

Rank: 6Rank: 6

馆币
41460 枚
积分
2509
阅读权限
150
积分
3422
帖子
422
精华
6
UID
25206

最佳资源分享奖 家驹诞辰50周年纪念勋章 C款蓝衣版91Live纪念勋章

发表于 2019-11-2 11:16:30 |显示全部楼层
        机缘巧合得到的这么一个版本,鉴于现在各种形式,一旦和谐就没有备份了,个人觉得这个版本很不错,现分享给大家,觉得不错的可以收藏。
      
       剧名:大时代
       译名:The Greed Of Man
       主演:李丽珍/周慧敏/林保怡/郭蔼明/刘青云/郑少秋
       语言:国/粤语 简/繁/英外挂字幕
       简介:股票经纪新被蟹打死,遗下博四兄妹由玲养育成人。博知蟹潜逃返港,终令蟹判刑,奈何遭蟹子报復,逃到台湾。蟹假释出狱进军股票界,时博得生及邦之助,偕红顏知己梅及文回港,联同好友滔,拟把股票市场变成杀蟹屠场。
       视频截图:
      
      
      
       具体参数:
      
General
Unique ID                      : 14000583684333519030791456754593261643 (0xA886A11E6CAECE226B43E1B99B5684B)
Complete name                  : E:\Download\大时代EP01.mkv
Format                         : Matroska
Format version                 : Version 4
File size                      : 487 MiB
Duration                       : 44 min 42 s
Overall bit rate               : 1 523 kb/s
Encoded date                   : UTC 2019-02-19 05:30:49
Writing application            : mkvmerge v31.0.0 ('Dolores In A Shoestand') 64-bit
Writing library                : libebml v1.3.6 + libmatroska v1.4.9

Video
ID                             : 1
Format                         : AVC
Format/Info                    : Advanced Video Codec
Format profile                 : High@L4.1
Format settings                : CABAC / 4 Ref Frames
Format settings, CABAC         : Yes
Format settings, Reference fra : 4 frames
Codec ID                       : V_MPEG4/ISO/AVC
Duration                       : 44 min 42 s
Bit rate                       : 1 397 kb/s
Width                          : 1 280 pixels
Height                         : 720 pixels
Display aspect ratio           : 16:9
Frame rate mode                : Variable
Frame rate                     : 24.909 FPS
Original frame rate            : 25.000 FPS
Standard                       : PAL
Color space                    : YUV
Chroma subsampling             : 4:2:0
Bit depth                      : 8 bits
Scan type                      : Progressive
Bits/(Pixel*Frame)             : 0.061
Stream size                    : 447 MiB (92%)
Language                       : Chinese
Default                        : Yes
Forced                         : No
Color range                    : Limited
Color primaries                : BT.709
Transfer characteristics       : BT.709
Matrix coefficients            : BT.709

Audio #1
ID                             : 2
Format                         : AAC LC
Format/Info                    : Advanced Audio Codec Low Complexity
Codec ID                       : A_AAC-2
Duration                       : 44 min 42 s
Bit rate                       : 61.7 kb/s
Channel(s)                     : 2 channels
Channel layout                 : L R
Sampling rate                  : 44.1 kHz
Frame rate                     : 43.066 FPS (1024 SPF)
Compression mode               : Lossy
Stream size                    : 19.7 MiB (4%)
Title                          : 国语(Mandarin)
Language                       : Chinese
Default                        : Yes
Forced                         : No

Audio #2
ID                             : 3
Format                         : AAC LC
Format/Info                    : Advanced Audio Codec Low Complexity
Codec ID                       : A_AAC-2
Duration                       : 44 min 42 s
Bit rate                       : 61.7 kb/s
Channel(s)                     : 2 channels
Channel layout                 : L R
Sampling rate                  : 44.1 kHz
Frame rate                     : 43.066 FPS (1024 SPF)
Compression mode               : Lossy
Stream size                    : 19.7 MiB (4%)
Title                          : 粤语(Cantonese)
Language                       : Chinese
Default                        : No
Forced                         : No

Text #1
ID                             : 4
Format                         : UTF-8
Codec ID                       : S_TEXT/UTF8
Codec ID/Info                  : UTF-8 Plain Text
Duration                       : 43 min 55 s
Bit rate                       : 39 b/s
Count of elements              : 640
Stream size                    : 12.8 KiB (0%)
Title                          : 简体(chi)
Language                       : Chinese
Default                        : Yes
Forced                         : No

Text #2
ID                             : 5
Format                         : UTF-8
Codec ID                       : S_TEXT/UTF8
Codec ID/Info                  : UTF-8 Plain Text
Duration                       : 43 min 55 s
Bit rate                       : 39 b/s
Count of elements              : 640
Stream size                    : 12.8 KiB (0%)
Title                          : 繁体(zho)
Language                       : Chinese
Default                        : No
Forced                         : No

Text #3
ID                             : 6
Format                         : UTF-8
Codec ID                       : S_TEXT/UTF8
Codec ID/Info                  : UTF-8 Plain Text
Duration                       : 43 min 59 s
Bit rate                       : 52 b/s
Count of elements              : 540
Stream size                    : 16.9 KiB (0%)
Title                          : 英文(eng)
Language                       : English
Default                        : No
Forced                         : No

禁止使用于任何商业用途,由此引起的后果自负,如有侵权请直接删除。



下载链接(30天内有效)
游客,如果您要查看本帖隐藏内容请回复
附件: 你需要登录才可以下载或查看附件。没有帐号?注册
《BEYOND歌迷纪念册II》

Rank: 8Rank: 8

馆币
313038 枚
积分
9029
阅读权限
255
积分
23771
帖子
4452
精华
1
UID
294

铁杆FANS 博物馆颁奖礼纪念勋章 博物馆建设勋章 重在参与鼓励奖 金牌会员 博物馆认证㊣勋章 家驹诞辰50周年纪念勋章 第三届 B款蓝衣版91Live纪念勋章

发表于 2019-11-2 13:12:41 |显示全部楼层
简介看了想笑

使用道具 举报

Rank: 6Rank: 6

馆币
61142 枚
积分
3974
阅读权限
150
积分
5602
帖子
771
精华
0
UID
19256
发表于 2019-11-2 13:46:00 |显示全部楼层
有没有未删减版的
《BEYOND歌迷纪念册II》

使用道具 举报

Rank: 8Rank: 8

馆币
110688 枚
积分
7063
阅读权限
150
积分
11201
帖子
2047
精华
0
UID
22799
发表于 2019-11-2 14:12:55 |显示全部楼层
感谢楼主分享!!

使用道具 举报

Rank: 6Rank: 6

馆币
41460 枚
积分
2509
阅读权限
150
积分
3422
帖子
422
精华
6
UID
25206

最佳资源分享奖 家驹诞辰50周年纪念勋章 C款蓝衣版91Live纪念勋章

发表于 2019-11-2 14:26:51 来自手机 |显示全部楼层
RL开通啦 发表于 2019-11-2 13:12
简介看了想笑

TVB官方简介为了省字数,采用了半文言文形式介绍剧情,确实有些与众不同

使用道具 举报

Rank: 6Rank: 6

馆币
41460 枚
积分
2509
阅读权限
150
积分
3422
帖子
422
精华
6
UID
25206

最佳资源分享奖 家驹诞辰50周年纪念勋章 C款蓝衣版91Live纪念勋章

发表于 2019-11-2 14:28:09 来自手机 |显示全部楼层
雳雳我爱你 发表于 2019-11-2 13:46
有没有未删减版的

没有,现在都是这个40集DVD版本

使用道具 举报

Rank: 6Rank: 6

馆币
49592 枚
积分
5768
阅读权限
150
积分
8518
帖子
1346
精华
0
UID
21482
发表于 2019-11-2 16:04:10 |显示全部楼层

使用道具 举报

真的见证

簡簡單單 平平淡淡

Rank: 6Rank: 6

馆币
41435 枚
积分
3368
阅读权限
150
积分
4183
帖子
371
精华
0
UID
10795
发表于 2019-11-2 17:32:17 |显示全部楼层
感谢分享!!!!!!!!!!!!

使用道具 举报

Rank: 6Rank: 6

馆币
24829 枚
积分
1630
阅读权限
150
积分
2082
帖子
221
精华
0
UID
18139
发表于 2019-11-3 05:28:57 |显示全部楼层
太经典的连续剧了!

使用道具 举报

Rank: 8Rank: 8

馆币
313414 枚
积分
9091
阅读权限
150
积分
15440
帖子
2760
精华
0
UID
10357

博物馆颁奖礼纪念勋章 家驹诞辰50周年纪念勋章 A款蓝衣版91Live纪念勋章

发表于 2019-11-3 09:38:50 |显示全部楼层
感谢分享了

使用道具 举报

您需要登录后才可以回帖 登录 | 注册

Archiver|手机版|BEYOND博物馆

GMT+8, 2019-11-21 11:05 , Processed in 0.059368 second(s), 18 queries .

Powered by Discuz! X2 Licensed

© 2001-2011 Comsenz Inc.

回顶部